#TITLE:The Least 100sec;
#SUBTITLE:(From KM 3rd Mix ver);
#ARTIST:Hirofumi Sasaki;
#TITLETRANSLIT:;
#SUBTITLETRANSLIT:;
#ARTISTTRANSLIT:;
#CREDIT:;
#BANNER:The Least 100sec (From KM 3rd Mix ver).png;
#BACKGROUND:The Least 100sec (From KM 3rd Mix ver)-bg.png;
#LYRICSPATH:;
#CDTITLE:NVLM-cdtitle.png;
#MUSIC:The Least 100sec (From KM 3rd Mix ver).mp3;
#OFFSET:-3.739;
#SAMPLESTART:7.186;
#SAMPLELENGTH:12.000;
#SELECTABLE:YES;
#DISPLAYBPM:131.000:263.000;
#BPMS:0.000=263.325,383.000=131.500,383.500=65.750,384.000=131.500;
#STOPS:384.000=0.500
;
#BGCHANGES:;
// cache tags:
#FIRSTBEAT:0.000;
#LASTBEAT:397.500;
#SONGFILENAME:Songs/Music V.I.P ^_^/The Least 100sec (From KM 3rd Mix ver)/The Least 100sec (From KM 3rd Mix ver).sm;
#HASMUSIC:1;
#HASBANNER:1;
#MUSICLENGTH:99.186;
// end cache tags

//---------------dance-single - ----------------
#NOTES:
     dance-single:
     :
     Hard:
     10:
     0.824,1.000,0.484,0.232,0.066,501.000,48.000,23.000,0.000,0.000:  // measure 1
1000
0100
0010
0001
0000
0100
0000
0010
,  // measure 2
0000
1000
0001
0000
0010
0000
0100
0000
,  // measure 3
1000
0001
1000
0001
0010
0100
0010
0100
,  // measure 4
1000
0010
0200
0000
0000
0000
0300
0000
,  // measure 5
0001
0000
0001
0100
0000
1000
0200
0000
,  // measure 6
0300
0010
0001
0100
,  // measure 7
0010
1000
0010
0000
1000
0100
1000
0000
,  // measure 8
0001
0100
0001
0100
0010
1000
0010
0000
,  // measure 9
0100
0000
0001
1000
0000
1000
0100
0000
,  // measure 10
0100
0000
0010
0001
0010
0000
0001
0000
,  // measure 11
1000
0100
1000
0010
0100
0010
0100
0000
,  // measure 12
1001
2002
0000
3003
,  // measure 13
0100
0000
0001
1000
0000
1000
0100
0000
,  // measure 14
0000
0000
0110
0000
0001
1000
0100
0000
,  // measure 15
0010
0000
0010
0001
0000
0001
0100
0000
,  // measure 16
0000
0000
1000
0010
1000
0100
0010
0000
,  // measure 17
0001
1000
0000
0100
0010
0000
0001
0100
,  // measure 18
0000
0010
1000
0000
0100
0010
0000
0001
,  // measure 19
0100
0000
0010
1000
0000
1000
0100
0000
,  // measure 20
0010
0001
0000
1000
0010
0000
0010
0100
,  // measure 21
0001
0010
0100
1000
0010
1000
0001
0100
,  // measure 22
0001
0000
0101
0000
0000
1001
0000
0000
,  // measure 23
1010
0000
0110
0000
,  // measure 24
0101
0000
1100
0000
,  // measure 25
1010
0000
0100
0001
0100
0001
0010
0000
,  // measure 26
0100
0000
1000
0010
0100
0000
0001
0000
,  // measure 27
0220
0000
0330
0000
,  // measure 28
0110
0101
1001
2200
,  // measure 29
3300
0000
0001
0100
0010
0000
1000
0000
,  // measure 30
0100
0000
0001
0100
0000
1000
0100
0000
,  // measure 31
1000
0000
0100
0000
0010
0001
0010
0000
,  // measure 32
2002
0000
0000
3003
,  // measure 33
1001
0000
0010
1000
0010
0000
0100
0001
,  // measure 34
0100
0000
0001
0010
0001
0000
0100
0010
,  // measure 35
0100
0000
0010
1000
0010
0000
1000
0100
,  // measure 36
1000
0000
0100
0010
0100
0000
0010
0000
,  // measure 37
1001
0000
0000
0220
0000
0000
0000
0000
,  // measure 38
0000
0000
0330
0000
0000
0000
0000
1001
,  // measure 39
0000
0220
0000
0330
,  // measure 40
1000
0000
0100
0000
1000
0010
0000
0100
0000
0001
0000
0000
,  // measure 41
1001
0000
0100
0010
0100
0000
0001
0010
,  // measure 42
0001
0000
0100
0010
0100
0000
0010
1000
,  // measure 43
0010
0000
1000
0100
1000
0000
0100
0001
,  // measure 44
0100
0000
0001
1000
0001
0000
0100
0000
,  // measure 45
1001
0000
1000
0100
0000
0001
0010
0000
,  // measure 46
0100
1000
0000
0100
0010
0000
0001
0000
,  // measure 47
0101
0000
0010
1000
0100
0000
0010
0000
,  // measure 48
0001
0000
0100
0010
1000
0000
0010
0000
,  // measure 49
0100
0000
0001
0010
0100
0000
1000
0000
,  // measure 50
0100
0000
0010
0001
0010
0000
0100
0000
,  // measure 51
1000
0000
0001
0100
0010
0000
1000
0000
,  // measure 52
0100
0000
0001
0010
0100
0000
1000
0000
,  // measure 53
0010
0000
1000
0100
0010
0000
0001
0000
,  // measure 54
0010
0000
1000
0100
0010
0000
0100
0000
,  // measure 55
1001
0000
0100
0010
0000
0001
1000
0000
,  // measure 56
0100
0010
0000
0100
0001
0000
0100
1000
,  // measure 57
0000
0010
0100
0000
0001
0010
0100
0000
,  // measure 58
0110
0101
1001
1100
,  // measure 59
0010
0000
0001
0000
0100
0010
1000
0000
,  // measure 60
0100
0000
0010
0000
1000
0001
0100
0000
,  // measure 61
0001
0000
0010
0000
1000
0001
0100
0000
,  // measure 62
0010
0000
1000
0000
0001
0010
0100
0000
,  // measure 63
1000
0000
0010
0000
0001
1000
0100
0000
,  // measure 64
1000
0000
0010
0000
1000
0100
0010
0000
,  // measure 65
0001
0000
0010
0000
1000
0001
0100
0001
,  // measure 66
0010
0000
0100
1000
0001
0010
0100
0000
,  // measure 67
1100
0100
0010
0010
,  // measure 68
0001
0000
0001
0000
0010
0100
0010
0100
,  // measure 69
1000
0010
1000
0010
0100
0001
0100
0001
,  // measure 70
0010
0100
0010
0100
1000
0000
1010
0000
,  // measure 71
0100
0001
1000
0100
,  // measure 72
0010
0000
0010
0000
0100
0010
0100
0010
,  // measure 73
0001
0010
0001
0010
0100
1000
0100
1000
,  // measure 74
0010
0100
0010
0100
0001
1000
0001
0000
,  // measure 75
0100
0010
0000
0010
0200
0000
0300
0000
,  // measure 76
1000
0000
0110
0000
0010
0000
0001
0100
,  // measure 77
0001
0000
1001
0000
0100
0010
0100
0010
,  // measure 78
0001
0100
0001
0000
1000
0001
1000
0001
,  // measure 79
1000
0100
0010
0001
,  // measure 80
0010
0000
0100
1000
0010
0000
0100
0001
,  // measure 81
1000
0000
0100
0001
0010
0000
1001
0000
,  // measure 82
2200
3300
0000
0011
,  // measure 83
0010
0100
0000
1000
0002
0000
0003
0000
,  // measure 84
0100
0001
0010
0001
0100
0000
0010
1000
,  // measure 85
0000
0100
0001
0000
1002
0000
0003
0000
,  // measure 86
0010
0100
1000
0010
0100
0001
1000
0000
,  // measure 87
1000
0100
0000
0001
0010
0000
0100
1000
,  // measure 88
0010
0000
1000
0100
0000
0010
0001
0000
,  // measure 89
0100
0010
0000
1000
0001
0000
0100
0010
,  // measure 90
1000
0100
0010
0001
0100
0000
0010
1000
,  // measure 91
0100
1000
0010
0100
0010
0100
0001
0000
,  // measure 92
0000
0110
0000
0000
1001
0000
1000
0000
,  // measure 93
0110
0001
0101
1000
,  // measure 94
1100
0000
0010
0001
1000
0010
0100
0001
,  // measure 95
0100
0010
1000
0001
0010
0100
1000
0010
,  // measure 96
0100
0001
1000
0000
1100
0000
0220
0000
,  // measure 97
0330
0000
0000
0000
1000
0100
1000
0100
1000
0000
0001
0100
0001
0100
0001
0000
,  // measure 98
0010
0100
0010
0100
0000
1001
0000
1100
0000
0110
0000
0000
0022
0000
0000
0000
,  // measure 99
0000
0000
0000
0000
,  // measure 100
0000
0000
0000
0033
0000
0000
0000
0000
;

//---------------dance-single - ----------------
#NOTES:
     dance-single:
     :
     Medium:
     9:
     0.619,0.802,0.817,0.232,0.015,326.000,81.000,23.000,0.000,0.000:  // measure 1
1000
0000
0010
0100
0000
0001
0000
1000
,  // measure 2
0000
0100
0000
0010
0000
0001
0100
0000
,  // measure 3
1000
0001
0010
0100
,  // measure 4
1000
2002
0000
3003
,  // measure 5
0001
0000
0001
0100
0000
0000
0010
0000
,  // measure 6
0000
0001
1000
0100
,  // measure 7
0010
0001
0100
0100
,  // measure 8
0001
0010
0100
1000
,  // measure 9
0010
0000
0100
0001
0000
0000
0001
0000
,  // measure 10
0010
0100
1000
0001
,  // measure 11
1000
0100
1000
0000
0010
0000
0100
0000
,  // measure 12
1001
2002
0000
3003
,  // measure 13
0100
0000
0001
1000
0000
0000
1001
0000
,  // measure 14
0000
0110
0001
0000
,  // measure 15
0110
0000
0010
0001
0000
0000
0100
0000
,  // measure 16
0000
0000
1000
0010
1000
0000
0000
0000
,  // measure 17
1001
0000
0000
0110
0000
0000
1010
0000
,  // measure 18
0000
1100
0000
0000
0110
0000
0000
0011
,  // measure 19
0000
0000
1001
0000
0000
1010
0000
0000
,  // measure 20
0110
0000
0000
1001
0000
0000
0010
0000
,  // measure 21
0100
1000
0010
0100
,  // measure 22
0001
0000
0101
0000
0000
1001
0000
0000
,  // measure 23
1010
0000
1001
0000
,  // measure 24
0101
0000
1100
0000
,  // measure 25
1010
0100
0100
0001
,  // measure 26
0010
0100
1000
0001
,  // measure 27
2002
0000
0000
0000
0000
3003
0000
0000
,  // measure 28
0110
0101
1001
1010
,  // measure 29
0000
0001
0010
0100
,  // measure 30
1000
0001
0000
0100
,  // measure 31
1000
0100
0110
0000
,  // measure 32
2002
0000
0000
3003
,  // measure 33
1000
0000
0000
1000
0010
0000
0000
0010
,  // measure 34
0100
0000
0000
0100
0001
0000
0000
0001
,  // measure 35
0010
0000
0000
0010
0100
0000
0000
0100
,  // measure 36
1000
0000
0000
1000
0100
0000
0000
0000
,  // measure 37
1001
0000
0000
0220
0000
0000
0000
0000
,  // measure 38
0000
0000
0330
0000
0000
0000
0000
1001
,  // measure 39
0000
0220
0000
0000
,  // measure 40
0000
0000
0330
0000
,  // measure 41
1001
0000
0000
1000
0100
0000
0000
0100
,  // measure 42
0010
0000
0000
0010
0001
0000
0000
0001
,  // measure 43
0100
0000
0000
0100
0010
0000
0000
0010
,  // measure 44
0100
0000
0000
0100
1000
0000
0100
0000
,  // measure 45
1001
0000
0000
1100
0000
0000
0110
0000
,  // measure 46
0000
0011
0000
0000
1001
0000
0001
0000
,  // measure 47
0101
0100
0010
1000
,  // measure 48
0001
0100
0010
0000
,  // measure 49
0100
0001
0001
1000
,  // measure 50
0100
0010
0001
0000
,  // measure 51
1000
0001
0100
1000
,  // measure 52
0100
0001
1000
0000
,  // measure 53
0010
1000
0100
0010
,  // measure 54
0001
1000
0010
0000
,  // measure 55
1001
0000
0000
0110
0000
0000
0101
0000
,  // measure 56
0000
1001
0000
0000
1100
0000
0000
0110
,  // measure 57
0000
0000
0101
0000
0000
1001
0000
0000
,  // measure 58
1010
0101
0101
1001
,  // measure 59
1000
0001
0100
1000
,  // measure 60
0000
0010
1000
0100
,  // measure 61
0001
0010
0100
0100
,  // measure 62
0000
1000
0001
0100
,  // measure 63
0010
1000
0001
0100
,  // measure 64
0000
0010
1000
0010
,  // measure 65
0001
0010
1000
0100
,  // measure 66
0010
0001
0001
1000
,  // measure 67
0200
0000
0000
0000
,  // measure 68
0310
0010
0001
0001
,  // measure 69
1000
0010
0100
0001
,  // measure 70
0010
0100
0010
0000
1000
0000
0001
0000
,  // measure 71
0020
0000
0000
0000
,  // measure 72
0130
1000
0001
0010
,  // measure 73
1000
0000
0010
0000
0001
0000
1000
0010
,  // measure 74
1000
0100
0010
1001
,  // measure 75
0100
0010
0000
0000
0010
0000
0000
0000
,  // measure 76
1000
0100
0010
0001
,  // measure 77
0010
0100
1000
0010
,  // measure 78
0100
0010
1000
0001
,  // measure 79
0100
0010
1000
0001
,  // measure 80
0010
0100
1000
0100
,  // measure 81
0010
0001
0100
0101
,  // measure 82
2002
3003
0000
0011
,  // measure 83
0000
0110
0000
0000
1001
0000
0000
0000
,  // measure 84
0100
0001
0001
0110
,  // measure 85
0000
1010
0000
0000
1001
0000
0000
0000
,  // measure 86
0020
0000
0000
0000
0130
0000
0000
1001
,  // measure 87
0000
0110
0100
0000
,  // measure 88
0110
0000
0000
1100
0000
0000
1001
0000
,  // measure 89
0000
0101
0000
0000
2200
0000
3300
0000
,  // measure 90
0010
0001
0100
0010
,  // measure 91
1000
0100
0010
1001
,  // measure 92
0000
0110
0000
0000
1001
0000
0000
0000
,  // measure 93
0110
0000
0101
0000
,  // measure 94
1100
0010
0001
0100
,  // measure 95
0010
0000
1000
0000
0100
0000
0010
0001
,  // measure 96
0100
0001
0100
0000
0110
0000
2002
0000
,  // measure 97
3003
0000
1000
0100
0001
0001
0100
1000
,  // measure 98
0010
0000
0100
0000
0000
1001
0000
1001
0000
1001
0000
0000
0220
0000
0000
0000
,  // measure 99
0000
0000
0000
0000
,  // measure 100
0000
0000
0000
0330
0000
0000
0000
0000
;

//---------------dance-single - ----------------
#NOTES:
     dance-single:
     :
     Easy:
     7:
     0.500,0.601,0.605,0.333,0.005,254.000,60.000,33.000,0.000,0.000:  // measure 1
1000
0000
0000
0100
0000
0010
0000
0001
,  // measure 2
0000
0100
0000
0010
0000
0010
0100
0000
,  // measure 3
1000
0001
0010
0000
,  // measure 4
0100
2002
0000
3003
,  // measure 5
0100
0000
0000
0010
0000
0000
0110
0000
,  // measure 6
0000
0001
1000
0100
,  // measure 7
0010
0001
0100
0000
,  // measure 8
0001
0010
0100
1000
,  // measure 9
0010
0000
0000
1001
0000
0000
0100
0000
,  // measure 10
0010
0010
1000
0000
,  // measure 11
1000
0100
0010
0000
,  // measure 12
1001
2002
0000
3003
,  // measure 13
0100
0000
0000
1001
0000
0000
2002
0000
,  // measure 14
3003
0100
0110
0000
,  // measure 15
1001
0000
0000
0101
0000
0000
0202
0000
,  // measure 16
0303
1000
0100
0000
,  // measure 17
1001
0000
0000
0100
0000
0000
0010
0000
,  // measure 18
0000
0001
0000
0000
0100
0000
0000
0010
,  // measure 19
0000
0000
1000
0000
0000
0100
0000
0000
,  // measure 20
0010
0000
0000
0001
0000
0000
0010
0000
,  // measure 21
0000
1000
0000
0010
,  // measure 22
0000
0000
0001
0000
0000
0001
0000
0000
,  // measure 23
0110
0000
1001
0000
,  // measure 24
1010
0000
1100
0000
,  // measure 25
0110
0000
0100
0001
,  // measure 26
0010
0000
1000
0100
,  // measure 27
2002
0000
0000
0000
0000
3003
0000
0000
,  // measure 28
0110
0110
1001
1001
,  // measure 29
0000
0001
0010
0000
,  // measure 30
0100
0000
0020
0000
0000
0000
0000
0030
,  // measure 31
1000
0000
0110
0000
,  // measure 32
2002
0000
0000
3003
,  // measure 33
1000
0000
0110
0000
,  // measure 34
0001
0000
0101
0000
,  // measure 35
0010
0000
1010
0000
,  // measure 36
0100
0000
1001
0000
,  // measure 37
1001
0000
0000
0220
0000
0000
0000
0000
,  // measure 38
0000
0000
0330
0000
0000
0000
0000
1001
,  // measure 39
0000
0220
0000
0000
,  // measure 40
0000
0000
0330
0000
,  // measure 41
1001
0000
0100
0000
,  // measure 42
1001
0000
0010
0000
,  // measure 43
1100
0000
0010
0000
,  // measure 44
0101
0000
1000
0000
,  // measure 45
1001
0000
0000
0100
0000
0000
0010
0000
,  // measure 46
0000
0001
0000
0000
1001
0000
1001
0000
,  // measure 47
0110
0000
0010
1000
,  // measure 48
0001
0000
0010
0000
,  // measure 49
0100
0001
0001
1000
,  // measure 50
0100
0000
0001
0000
,  // measure 51
1000
0001
0100
1000
,  // measure 52
0100
0000
0010
0000
,  // measure 53
0010
1000
0100
0010
,  // measure 54
0001
0000
0100
0000
,  // measure 55
1001
0000
0000
0010
0000
0000
0100
0000
,  // measure 56
0000
1000
0000
0000
0100
0000
0000
0010
,  // measure 57
0000
0000
0001
0000
0000
0100
0000
0000
,  // measure 58
0010
0100
1001
1001
,  // measure 59
1000
0001
0100
0000
,  // measure 60
0010
0100
1000
0000
,  // measure 61
0001
0010
0100
0000
,  // measure 62
1000
0001
0100
0000
,  // measure 63
0010
1000
0001
0000
,  // measure 64
0100
0010
1000
0000
,  // measure 65
0001
0010
0100
0000
,  // measure 66
0001
0100
0001
0000
,  // measure 67
0200
0000
0000
0000
,  // measure 68
0310
0001
0010
0001
,  // measure 69
1000
0010
0100
0001
,  // measure 70
0010
0100
0000
1000
,  // measure 71
0020
0000
0000
0000
,  // measure 72
0130
1000
0001
0100
,  // measure 73
0010
0100
0001
1000
,  // measure 74
0010
0100
0000
1001
,  // measure 75
0000
0010
0000
0000
0110
0000
0000
0000
,  // measure 76
1000
0100
0010
0001
,  // measure 77
0000
0001
0000
0010
,  // measure 78
0000
0010
0000
0100
,  // measure 79
0010
0000
1000
0001
,  // measure 80
0010
0100
1000
0100
,  // measure 81
0010
0001
0100
0101
,  // measure 82
0202
0303
0000
0011
,  // measure 83
0000
0100
0000
0000
1000
0000
0000
0000
,  // measure 84
0100
0001
0000
0010
,  // measure 85
0000
1001
0000
0000
0100
0000
0000
0000
,  // measure 86
0020
0000
0000
0000
0130
0000
0000
0001
,  // measure 87
0000
0000
0020
0000
0000
0030
0000
0000
,  // measure 88
0100
0000
0000
0100
0000
0000
0001
0000
,  // measure 89
0000
0101
0000
0000
2002
0000
3003
0000
,  // measure 90
0000
0000
0101
0000
,  // measure 91
1010
0000
0000
1001
,  // measure 92
0000
0100
0000
0000
0100
0000
0000
0000
,  // measure 93
0011
0000
0100
0000
,  // measure 94
1001
0000
0110
0000
,  // measure 95
0010
0100
1000
0010
,  // measure 96
0100
0010
0110
2002
,  // measure 97
3003
0000
0200
0000
0300
0002
0000
0003
,  // measure 98
0020
0000
0030
0000
0000
0200
0000
0000
0000
0000
0300
0000
2002
0000
0000
0000
,  // measure 99
0000
0000
0000
0000
,  // measure 100
0000
0000
0000
3003
0000
0000
0000
0000
;

//---------------dance-single - ----------------
#NOTES:
     dance-single:
     :
     Challenge:
     11:
     1.000,1.000,1.000,0.373,0.071,625.000,106.000,37.000,0.000,0.000:  // measure 1
1000
0100
0010
0001
1000
0101
0000
0110
,  // measure 2
0000
1100
0001
1000
0010
0001
0100
0010
,  // measure 3
1000
0001
0100
0001
0010
1000
0010
0100
,  // measure 4
1000
0010
0202
0000
0000
0000
0303
0000
,  // measure 5
1001
0000
0001
0110
0000
1000
2200
0000
,  // measure 6
3300
1010
0101
1100
,  // measure 7
0010
1000
0010
0100
0001
0100
1000
0010
,  // measure 8
0001
0100
1000
0100
0010
1000
0010
0001
,  // measure 9
0100
0010
0001
1000
0000
1000
0100
0000
,  // measure 10
0110
0000
0010
0001
0010
0100
0001
0010
,  // measure 11
1000
0100
1000
0010
0001
0010
0100
1000
,  // measure 12
1001
0001
0202
0000
0000
0000
0303
0000
,  // measure 13
0110
0000
0001
1000
0010
1000
2200
0000
,  // measure 14
3300
0000
0110
0000
0001
1000
0100
0010
,  // measure 15
0011
0000
0010
0001
0000
0001
0202
0000
,  // measure 16
0303
0000
1000
0010
1000
0100
0010
0100
,  // measure 17
0001
1000
0001
0100
0010
1000
0001
0100
,  // measure 18
0001
0010
1000
1000
0100
0010
0001
0001
,  // measure 19
0100
0010
0010
1000
0001
1000
0100
0010
,  // measure 20
0010
0001
0100
1000
0010
0001
0010
0100
,  // measure 21
0001
0010
0100
1000
0010
1000
0001
0100
,  // measure 22
0001
0000
0101
0000
0100
1001
0000
0100
,  // measure 23
1010
0001
0110
1000
,  // measure 24
0101
0010
1100
0001
,  // measure 25
1010
0000
0100
0001
0100
0001
0010
0100
,  // measure 26
1000
0001
1000
0010
0100
0001
0010
0100
,  // measure 27
0220
0000
0330
0000
,  // measure 28
0110
0101
1001
2200
,  // measure 29
3300
0000
0001
0100
0010
1000
0100
0010
,  // measure 30
0001
0000
0001
0100
0010
1000
0100
0010
,  // measure 31
1000
0100
0010
0001
0100
0001
0010
0000
,  // measure 32
2002
0000
0000
3003
,  // measure 33
1001
0100
0010
1000
0010
1000
0100
0001
,  // measure 34
0100
0010
0001
0010
0001
0010
0100
0010
,  // measure 35
0100
1000
0010
1000
0010
0100
1000
0100
,  // measure 36
1000
0001
0100
0010
0100
1000
0010
0100
,  // measure 37
2002
3003
0000
0220
0000
0000
0000
0000
,  // measure 38
0000
0000
0330
0000
0000
0000
0000
2002
,  // measure 39
0000
3003
0220
0000
0000
0000
0330
0000
,  // measure 40
1000
0000
0100
0000
1000
0010
0000
0100
0000
0001
0000
0010
,  // measure 41
1100
1000
0100
0010
0100
0010
0001
0010
,  // measure 42
0001
1000
0100
0010
0100
1000
0010
1000
,  // measure 43
0010
0100
1000
0100
1000
0001
0100
0001
,  // measure 44
0100
1000
0001
1000
0001
0010
0100
0010
,  // measure 45
1001
0000
1000
0110
0000
0001
1010
0000
,  // measure 46
0100
1001
0000
0100
1010
0000
1001
0000
,  // measure 47
0101
0100
0010
1000
0100
0010
0001
0100
,  // measure 48
0001
0010
0100
0010
0100
1000
0010
1000
,  // measure 49
0100
0010
0001
0010
0100
1000
0010
1000
,  // measure 50
0100
0010
0001
0100
0010
1000
0100
0010
,  // measure 51
0001
0100
0001
0100
0010
1000
0001
0010
,  // measure 52
0100
1000
0001
0010
0100
1000
0010
0100
,  // measure 53
0010
0100
1000
0100
0010
1000
0001
0100
,  // measure 54
0010
1000
0100
0010
0001
0100
0010
1000
,  // measure 55
1001
0000
0100
0110
0000
0001
1001
0000
,  // measure 56
0100
0110
0000
0001
0101
0000
0100
1100
,  // measure 57
0000
0010
0110
0000
0001
1010
1000
0000
,  // measure 58
0110
0101
1001
1100
,  // measure 59
0010
0100
0001
1000
0100
0010
0001
1000
,  // measure 60
0100
0010
1000
0010
0001
0100
0010
1000
,  // measure 61
0001
0010
0100
1000
0010
0100
0001
1000
,  // measure 62
0100
0010
1000
0010
0001
0010
0100
1000
,  // measure 63
0010
0100
0010
1000
0001
1000
0100
0010
,  // measure 64
0001
0100
0010
0100
1000
0100
0010
1000
,  // measure 65
0001
0100
0010
1000
0100
0001
0100
0010
,  // measure 66
0001
0100
0010
1000
0001
0010
0100
1000
,  // measure 67
1100
0110
0011
1010
,  // measure 68
0101
0011
0110
0110
,  // measure 69
1000
0010
0001
0010
0100
1000
0100
0001
,  // measure 70
0010
0100
0010
0100
1000
0001
1000
0010
,  // measure 71
0110
0101
1010
1100
,  // measure 72
0110
1010
1100
1100
,  // measure 73
0001
0010
1000
0010
0100
0001
0100
1000
,  // measure 74
0010
0001
0010
0100
0001
1000
1010
0000
,  // measure 75
0100
0010
1000
0010
0201
0000
0301
0000
,  // measure 76
1000
0000
0110
0000
0010
0000
1001
0100
,  // measure 77
0001
0100
1001
0000
0100
0010
0100
0010
,  // measure 78
0001
0100
0001
0100
1000
0001
1000
0001
,  // measure 79
1000
0010
0100
1000
0010
0100
0001
0001
,  // measure 80
0010
0010
0100
1000
0010
0010
0100
0001
,  // measure 81
1000
0100
0010
0001
0010
0100
1001
1000
,  // measure 82
2200
3300
0000
0011
,  // measure 83
0010
0110
0000
1000
2002
0000
3003
0000
,  // measure 84
0100
0001
0010
0001
0100
0010
0110
0100
,  // measure 85
0000
1001
1000
0000
2002
0000
3003
0000
,  // measure 86
0010
0100
1000
0010
0100
0001
1000
0010
,  // measure 87
1010
0100
0000
0011
0010
0000
1100
1000
,  // measure 88
0010
0000
1100
0100
0000
0011
0001
0000
,  // measure 89
0110
0010
0000
1001
0001
0000
0110
0010
,  // measure 90
1000
0100
0010
0001
0100
0001
0010
0100
,  // measure 91
0100
1000
0010
0100
0010
0100
1001
0000
,  // measure 92
0100
0110
0000
0100
1001
0000
1000
0000
,  // measure 93
0110
0001
0101
1000
,  // measure 94
1100
0100
0010
0001
1000
0010
0100
0001
,  // measure 95
0100
0010
1000
0001
0010
0100
1000
0010
,  // measure 96
0100
0001
1000
0000
1100
0000
0220
0000
,  // measure 97
0330
0000
0000
0000
1001
0100
1000
0100
2000
0000
3001
0100
0001
0100
0002
0000
,  // measure 98
0013
0100
0010
0100
0010
1001
0000
1100
0000
0110
0000
0000
0022
0000
0000
0000
,  // measure 99
0000
0000
0000
0000
,  // measure 100
0000
0000
0000
0033
0000
0000
0000
0000
;
